Forsen plays ALTF4!

2 Просмотры
Издатель
Original VOD: *VOD DELETED*
Original Title: Diving into the depths of variety!
Stream Date: April 4, 2021
Stream Duration: 6:07:08
vod and chat files here: #3bi6WGXjyBUNq9ZW2SfFtFFPghcDr8kime4NQQra7Tr3

---
General
Format profile : Base Media
Codec ID : isom (isom/iso2/avc1/mp41)
File size : GiB
Duration : 1 h 12 min
Overall bit rate mode : Constant
Overall bit rate : 6 039 kb/s
Writing application :

Video
ID : 1
Format : AVC
Format/Info : Advanced Video Codec
Format profile : High@
Format settings : CABAC / 4 Ref Frames
Format settings, CABAC : Yes
Format settings, Reference frames : 4 frames
Format settings, GOP : M=3, N=120
Codec ID : avc1
Codec ID/Info : Advanced Video Coding
Duration : 1 h 12 min
Bit rate mode : Constant
Bit rate : 6 000 kb/s
Width : 1 920 pixels
Height : 1 080 pixels
Display aspect ratio : 16:9
Frame rate mode : Constant
Frame rate : FPS
Color space : YUV
Chroma subsampling : 4:2:0
Bit depth : 8 bits
Scan type : Progressive
Bits/(Pixel*Frame) :
Stream size : GiB (97%)
Color range : Full
Color primaries :
Transfer characteristics :
Matrix coefficients :
Codec configuration box : avcC

Audio
ID : 2
Format : AAC LC
Format/Info : Advanced Audio Codec Low Complexity
Codec ID : mp4a-40-2
Duration : 1 h 12 min
Duration_LastFrame : -11 ms
Bit rate mode : Constant
Bit rate : 160 kb/s
Channel(s) : 2 channels
Channel layout : L R
Sampling rate : kHz
Frame rate : FPS (1024 SPF)
Compression mode : Lossy
Stream size : MiB (3%)
Default : Yes
Alternate group : 1


#forsen #altf4 #variety
Категория
Фантастика онлайн
Комментариев нет.
Яндекс.Метрика