Forsen plays Little Nightmares II - FULL BLIND PLAYTHROUGH

0 Просмотры
Издатель
Original VOD:
Original Title: God gamer continues variety!
Stream Date: 5/4/2021 4:52:24 PM
Stream Duration: 5:47:33
vod and chat files: #7FGMiZQ8BEUk7XEBfW6R4cissfa7aXLis9LMjiUiEaKi

---
General
Complete name : C:\Users\windowspc\Videos\forsen-little-nightmares-2\[4-6-21] forsen - God gamer continues variety!.mp4
Format : MPEG-4
Format profile : Base Media
Codec ID : isom (isom/iso2/avc1/mp41)
File size : GiB
Duration : 5 h 47 min
Overall bit rate mode : Variable
Overall bit rate : 6 146 kb/s
Writing application :

Video
ID : 1
Format : AVC
Format/Info : Advanced Video Codec
Format profile : High@
Format settings : CABAC / 4 Ref Frames
Format settings, CABAC : Yes
Format settings, Reference frames : 4 frames
Format settings, GOP : M=3, N=120
Codec ID : avc1
Codec ID/Info : Advanced Video Coding
Duration : 5 h 47 min
Source duration : 5 h 47 min
Bit rate mode : Constant
Bit rate : 6 000 kb/s
Width : 1 920 pixels
Height : 1 080 pixels
Display aspect ratio : 16:9
Frame rate mode : Variable
Frame rate : FPS
Minimum frame rate : FPS
Maximum frame rate : FPS
Color space : YUV
Chroma subsampling : 4:2:0
Bit depth : 8 bits
Scan type : Progressive
Bits/(Pixel*Frame) :
Stream size : GiB (98%)
Source stream size : GiB (98%)
Color range : Full
Color primaries :
Transfer characteristics :
Matrix coefficients :
mdhd_Duration : 20852068
Codec configuration box : avcC

Audio
ID : 2
Format : AAC LC
Format/Info : Advanced Audio Codec Low Complexity
Codec ID : mp4a-40-2
Duration : 5 h 47 min
Bit rate mode : Variable
Bit rate : 126 kb/s
Maximum bit rate : 128 kb/s
Channel(s) : 2 channels
Channel layout : L R
Sampling rate : kHz
Frame rate : FPS (1024 SPF)
Compression mode : Lossy
Stream size : 314 MiB (2%)
Default : Yes
Alternate group : 1


#forsen #gaming #littlenightmares2
Категория
Фантастика онлайн
Комментариев нет.
Яндекс.Метрика