[Sven Snusberg] | Forsen GTA Roleplay NoPixel 3.0 - #13

0 Просмотры
Издатель
Original VOD:
Original Title: Sven Snusberg! GTARP! Metagaming = permaban!
Download VOD: #HK6FD3WQoRvcja468DSLBgR67h1Evf9JLGXtAdWnbgY9
Stream Date: 17/2/2021 5:51:51 PM
Stream Duration: 6:54:14

NoPixel is a Grand Theft Auto V role-play server, developed by Koil. The server is run on the third-party multiplayer server system, FiveM. It contains custom scripts created by Koil, and community developers.

The idea of role-play is to talk, act, and proceed as the character you are playing. This means that any action taken while in-game is taken on behalf of your character. The intent is to create an immersive experience where players and viewers alike can experience stories and situations, in what is essentially another world.

---

General
Complete name : C:\Users\windowspc\Videos\Snusberg12\[2-17-21] forsen - Sven Snusberg! GTARP! Metagaming = permaban!.mp4
Format : MPEG-4
Format profile : Base Media
Codec ID : isom (isom/iso2/avc1/mp41)
File size : GiB
Duration : 6 h 10 min
Overall bit rate mode : Constant
Overall bit rate : 6 149 kb/s
Writing application :

Video
ID : 1
Format : AVC
Format/Info : Advanced Video Codec
Format profile : High@
Format settings : CABAC / 4 Ref Frames
Format settings, CABAC : Yes
Format settings, Reference frames : 4 frames
Format settings, GOP : M=3, N=120
Codec ID : avc1
Codec ID/Info : Advanced Video Coding
Duration : 6 h 10 min
Source duration : 6 h 10 min
Bit rate mode : Constant
Bit rate : 6 000 kb/s
Width : 1 920 pixels
Height : 1 080 pixels
Display aspect ratio : 16:9
Frame rate mode : Variable
Frame rate : FPS
Minimum frame rate : FPS
Maximum frame rate : FPS
Color space : YUV
Chroma subsampling : 4:2:0
Bit depth : 8 bits
Scan type : Progressive
Bits/(Pixel*Frame) :
Stream size : GiB (98%)
Source stream size : GiB (98%)
Color range : Full
Color primaries :
Transfer characteristics :
Matrix coefficients :
mdhd_Duration : 22246268
Codec configuration box : avcC

Audio
ID : 2
Format : AAC LC
Format/Info : Advanced Audio Codec Low Complexity
Codec ID : mp4a-40-2
Duration : 6 h 10 min
Bit rate mode : Constant
Bit rate : 129 kb/s
Channel(s) : 2 channels
Channel layout : L R
Sampling rate : kHz
Frame rate : FPS (1024 SPF)
Compression mode : Lossy
Stream size : 341 MiB (2%)
Default : Yes
Alternate group : 1
Категория
Фантастика онлайн
Комментариев нет.
Яндекс.Метрика